Диагностика
Фильмы об алкоголиках торрент
14.05.2015, 12:07

Статьи: Не лезь в бутылку: 15 фильмов об алкоголиках

В. Давыдов и Голиаф.Покушение.Рыпкина любовь (Сборник короткометражных комедий )
В. Давыдов и Голиаф.Покушение.Рыпкина любовь Перевод: Не требуется
Cубтитры: отсутствуют
Формат: DVD5, DVD Video, MPEG2, AC3
Страна: СССР, Россия
Режиссеры: Геннадий Байсак, Сергей Багиров, Ольга Васильева
Жанр: комедия, короткометражка
Продолжительность: 00:32:55+00:26:00+00:15:19
Год выпуска: 1985, 1987, 1993
В ролях: Алексей Петренко, Александр Солдатов, Михаил Бычков, Михаил Бочаров, Вячеслав Горбунчиков, Виктор Уральский, Юрий Чернов, Валерий Баринов, Людмила Соловьева, Владимир Долинский, Юрий Чернов, Валентина Коротаева, Константин Курас, Олег Абрамов, Оксана Шевченко, Сергей Дорогов

Описание: Комедийный сборник из трех короткометражек.

В. Давыдов и Голиаф

Комедия о поединке семиклассника Вити Давыдова, с рабочим Голиафом, известным не только своим могучим телосложением, но и пристрастием к заимствованию государственной собственности.Субтитры: отсутствуют

Рейтинг на КиноПоиск: 8.112

Покушение

Анекдотическая комедия о том, как алкоголика при краже бутылки покусала собака и ему пришлось не пить чуть ли не целый месяц, так как нужно было делать уколы от бешенства.

Рейтинг на КиноПоиск: 6.524

Рыпкина любовь

О том, как пятиклассник Рыпкин нафантазировал романтическую, самоотверженную любовь к семикласснице Бутылкиной.

Рейтинг на КиноПоиск: 4.727

Видео: 720x576, (PAL 4:3), MPEG2 Video, 25.000 fps, 7 300 Kbps, 0.704 Bits/(PixelFrame)
Аудио#1: Русский: 48,0KHz, (AC-3), 2 ch, 192 Kbps

MediaInfo

General
Complete name : F:\Фильмы DVD\Давыдов и Голиаф. Сборник короткометражных кинокомедий\VIDEO_TS\VTS_02_1.VOB
Format : MPEG-PS
File size : 1 024 MiB
Duration : 18mn 45s
Overall bit rate : 7 631 Kbps

Video
ID : 224 (0xE0)
Format : MPEG Video
Format version : Version 2
Format profile : Main@Main
Format settings, BVOP : Yes
Format settings, Matrix : Custom
Format settings, GOP : Variable
Duration : 18mn 45s
Bit rate : 7 300 Kbps
Width : 720 pixels
Height : 576 pixels
Display aspect ratio : 4:3
Frame rate : 25.000 fps
Standard : PAL
Color space : YUV
Chroma subsampling : 4:2:0
Bit depth : 8 bits
Scan type : Interlaced
Scan order : Bottom Field First
Compression mode : Lossy
Bits/(PixelFrame) : 0.704
Time code of first frame : 00:00:00:00
Time code source : Group of pictures header
Stream size : 978 MiB (95%)

Audio
ID : 189 (0xBD)-128 (0x80)
Format : AC-3
Format/Info : Audio Coding 3
Mode extension : CM (complete main)
Format settings, Endianness : Big
Muxing mode : DVD-Video
Duration : 18mn 45s
Bit rate mode : Constant
Bit rate : 192 Kbps
Channel(s) : 2 channels
Channel positions : Front: L R
Sampling rate : 48.0 KHz
Bit depth : 16 bits
Compression mode : Lossy
Stream size : 25.8 MiB (3%)
Menu


Источник: http://tfile.me/forum/viewtopic.php?t=592046